#TITLE:Red Sign;
#SUBTITLE:jesushaxyousteps;
#ARTIST:Kevin.o2SE;
#TITLETRANSLIT:;
#SUBTITLETRANSLIT:;
#ARTISTTRANSLIT:;
#CREDIT:;
#BANNER:red sign-bn.png;
#BACKGROUND:red sign-bg.png;
#LYRICSPATH:;
#CDTITLE:jesushaxyou.png;
#MUSIC:Red Sign.mp3;
#OFFSET:-0.481;
#SAMPLESTART:41.282;
#SAMPLELENGTH:12.000;
#SELECTABLE:YES;
#DISPLAYBPM:80.000:180.000;
#BPMS:0.000=80.000,32.000=150.000,268.000=180.000,336.000=150.000;
#STOPS:;
#BGCHANGES:;
// cache tags:
#FIRSTBEAT:0.000;
#LASTBEAT:412.000;
#SONGFILENAME:Songs/Music V.I.P ^_^/Red Sign- Jusushaxyou/Red Sign.sm;
#HASMUSIC:1;
#HASBANNER:1;
#MUSICLENGTH:175.725;
// end cache tags

//---------------dance-single - (jesushaxyousteps)----------------
#NOTES:
     dance-single:
     (jesushaxyousteps):
     Hard:
     12:
     1.000,1.000,0.996,0.159,1.000,1121.000,175.000,28.000,0.000,2.000:

1100
0000
0100
0000
0010
0000
0001
0000
2200
0000
0000
0000
3300
0000
1000
0001
,
1100
0000
0100
0000
0010
0000
1000
0000
0011
0000
0000
0000
0000
0001
1000
0100
,
0011
0000
1000
0000
0100
0000
0010
0000
1100
0000
0000
0000
0000
1000
0100
0010
,
1100
0000
0100
0000
0001
0000
1000
0000
0110
0000
0000
0000
1010
0001
1000
0100
,
0011
0000
0100
0000
0010
0000
1000
0000
0110
0000
0000
0000
0000
1000
0100
0010
,
0011
0000
0100
0000
0110
0000
0100
0000
1100
0000
0000
0000
0000
1000
0100
0010
,
0011
0000
0100
0000
0010
0000
1000
0100
0010
0000
0001
0000
1100
0000
0010
0000
,
0011
0100
0011
0100
2200
0000
0000
3300
,
0000
0000
1001
0000
0000
0000
0000
2000
,
3100
0010
0000
0000
0011
0000
0100
0000
1100
0000
0010
0000
0110
0000
0001
0000
,
0110
0000
0100
0000
1100
0000
0001
0000
1000
0100
0010
0001
0010
0100
1000
0000
,
0011
0100
0110
0100
1100
0010
0011
0100
,
0110
0000
1000
0000
1100
0000
0010
0000
0010
0100
1000
0100
0010
0001
1001
0000
,
1001
0100
0011
0100
1100
0110
0011
0100
,
1100
0100
0011
0100
1100
0110
1100
0100
,
0011
0100
1000
0100
0010
0001
0010
0100
0001
1000
0100
0010
0001
0010
0100
1000
,
0101
0010
0100
1000
0100
1000
0001
0100
0010
0001
0100
1000
0100
0010
0001
0100
,
2000
0001
0000
0001
,
0000
3000
0000
0000
0000
0000
0000
0000
2000
0000
0000
0000
3200
0000
0000
0000
,
0310
0001
0010
0100
0001
1000
0100
0010
0001
0100
0010
1000
0100
0010
0001
0010
,
1100
0010
0001
0010
0100
1000
0100
0010
1000
0001
0010
0100
0010
0001
0010
0100
,
1100
0010
0001
0010
0100
0010
0001
1000
0100
0010
0100
0001
0010
0100
1000
0100
,
0011
0100
0010
0001
1000
0001
0100
0010
0001
1000
0100
0010
0100
1000
0100
0010
,
0011
0010
0100
1000
0100
0010
0001
0010
0001
0010
0100
1000
0100
0010
0100
1000
,
0110
0001
0010
0100
0010
0001
0010
0100
1000
0100
0010
0100
1000
0100
0010
0001
,
1010
0001
0010
0100
1000
0100
0010
0001
0010
0100
0010
0100
1000
0100
0010
0001
,
1010
0001
0010
1000
0100
0010
0001
0010
0100
0010
0001
0010
0100
1000
0100
0010
,
1001
0010
0100
1000
0100
0010
0100
0001
0010
0100
1000
0001
0010
0100
0001
1000
,
0110
0001
0010
0100
1000
0100
0010
1000
0001
0100
0010
0001
1000
0100
1000
0100
,
0011
0100
1000
0100
0010
0100
1000
0100
0010
0001
0010
0100
1000
0100
0010
0001
,
1100
0010
0001
0010
0100
0010
1000
0100
0001
0010
0100
0001
1000
0100
0010
0001
,
1100
0010
0001
0010
0100
1000
0100
0010
0100
1000
0100
0010
0001
0100
0010
1000
,
0110
0001
0010
0100
0010
1000
0001
0010
0100
0010
0001
1000
0100
0010
0100
1000
,
0200
0010
0000
0010
,
0300
0000
0000
0000
0010
0000
0000
0000
1000
0100
0010
0001
0010
0100
1000
0100
,
0022
0000
0033
1000
1000
0000
0011
0000
,
0100
0000
0000
0010
0010
0011
0011
0000
,
1000
0000
0000
0001
0001
0000
1100
0000
,
0100
0000
0000
0000
0000
0000
0010
0000
0010
0000
1100
0000
1100
0000
0100
0010
,
0001
0000
0000
1000
1000
0000
0011
0000
,
0001
0000
0000
0010
0001
0110
1100
0000
,
0100
0000
0000
0001
1000
0000
0110
0000
,
1000
0000
0000
0100
0010
0110
0110
0000
,
1100
0000
0000
0000
0011
0000
0001
1000
0000
0000
0100
0000
0011
0000
0000
0000
,
1100
0000
0000
0000
0110
0000
0001
0100
0000
0000
0100
0000
1100
0000
0010
0001
,
1100
0000
0000
0000
0011
0000
1000
0100
0000
0000
0010
0000
0110
0000
0000
0000
,
1100
0100
0011
0100
1100
0010
1001
0100
,
0011
0000
0000
0000
1100
0000
0001
0100
0000
0000
0011
0000
1100
0000
0000
0000
,
0110
0000
0000
0000
0011
0000
0001
0001
0000
0000
1100
0000
1100
0000
0000
0000
,
1001
0000
0000
0000
0110
0000
1000
1000
0000
0000
0110
0000
1001
0000
0000
0000
,
1100
0000
1000
0001
1000
0001
1000
0001
1001
0000
0100
0010
0100
0010
0100
0010
,
1100
0100
0011
0100
0011
0100
1100
0100
,
0011
0000
0100
0000
1001
0000
0100
0000
0100
0010
1000
0100
0010
0100
1000
0100
,
0011
0010
1100
0100
0011
0100
1001
0100
,
0101
0000
0100
0000
1010
0000
0100
0000
0010
0100
1000
0100
0010
0001
0010
0000
,
1100
0100
0110
0001
0110
0100
1100
0100
,
0011
0100
1001
0100
1100
0010
0101
0100
,
0100
0010
0001
0010
0100
1000
0100
1000
0100
0010
0001
0010
0100
0010
0001
0010
,
1100
0100
0010
0001
0010
0100
1000
0100
1000
0100
0010
0001
0010
0100
0010
0001
,
1100
0010
0011
0100
1100
0010
0011
0100
,
1100
0000
0100
0000
0011
0000
0010
0000
0001
0100
0010
0100
1000
0100
0010
0001
,
0110
0100
1100
0010
0011
1000
0110
0001
,
1100
0000
0100
0000
0011
0000
0010
0000
0100
1000
0100
0010
0100
1000
1100
0000
,
1001
0100
0110
0100
1100
0110
0011
1100
,
0110
0100
1100
0110
0011
0110
0011
1100
,
1000
0100
0010
0001
0010
0100
0010
0001
0010
0100
1000
0100
1000
0100
0010
0001
,
1010
0100
0010
0001
0010
0100
1000
0100
1000
0100
0010
0001
0010
0100
0010
0001
,
2200
0000
0000
0000
,
0000
0000
0000
0000
,
3310
0001
0010
0100
1000
0100
0010
0001
1000
0010
0100
0010
0001
0010
0100
1000
,
0100
0010
0001
0010
0100
0010
1000
0100
0010
0001
0010
0100
0010
1000
0100
0010
,
1001
0010
0100
1000
0100
0010
0100
1000
0100
0010
0001
0010
0001
0010
0100
1000
,
0100
0010
0001
0010
0100
1000
0100
0010
0100
1000
0100
0010
0001
0010
0100
1000
,
0011
0010
0100
1000
0100
0010
0100
0010
0001
0100
0010
0001
1000
0100
1000
0100
,
0010
1000
0001
0100
0010
0100
0001
1000
0100
0010
0100
0001
0010
0100
1000
0100
,
0011
0010
0100
1000
0100
0010
0100
1000
0100
0010
0001
0010
0100
0010
0100
1000
,
0110
0000
0001
0010
0100
1000
0100
0010
0011
0100
1000
0100
0010
0100
0010
0001
,
1100
0010
0001
0010
0100
1000
0100
0010
0100
1000
0100
0010
0001
0010
1000
0100
,
0010
0001
0010
0100
1000
0100
0010
0100
1000
0100
0010
0001
0010
0100
0010
0001
,
1100
0010
0001
0010
0100
1000
0100
0001
0010
0100
0001
1000
0100
0010
0001
1000
,
0001
1000
0100
0010
0100
0010
0001
0010
1000
0100
0010
0100
1000
0100
0010
0001
,
1010
0100
0010
0001
0010
0100
1000
0100
0010
0100
1000
0100
0010
0001
0010
0100
,
1001
0100
0010
0100
1000
0100
0010
0001
0010
0100
1000
0100
0010
0001
0010
0100
,
0022
0000
0000
0000
0000
0000
0000
0033
,
0000
0000
0000
0000
,
0000
0000
0000
0000
2000
0000
3200
0320
,
1031
0100
0010
0001
0010
0100
1000
0100
0010
0001
0010
1000
0001
0010
0100
0010
,
0011
0010
0100
1000
0100
1000
0100
0010
0001
0010
0100
0010
1000
0100
0010
0001
,
1100
0010
0001
0010
0100
1000
0001
0010
0100
0010
0001
0010
0100
1000
0100
0010
,
0011
0100
1000
0100
0010
0001
1000
0100
0010
0100
0001
0010
0100
1000
0100
0010
,
1001
0010
0100
1000
0100
0010
0001
0010
0100
0010
0001
0100
1000
0100
0010
0100
,
1100
0010
0001
0010
0100
0010
0001
0010
1000
0100
0010
0001
0010
0100
0010
0100
,
1010
0100
0010
0001
0010
0100
1000
0100
0010
0001
0010
0100
0010
1000
0100
0001
,
0110
0100
1000
0100
0010
0001
0010
0100
0010
0001
0010
0100
1000
0100
0010
0001
,
1100
0010
0001
0010
0100
0010
1000
0100
0010
0100
0001
0010
0100
1000
0100
0010
,
0011
1000
0001
0010
0100
0010
0001
0010
1000
0100
1000
0010
0001
0010
0100
0010
,
1001
0100
0010
1000
0100
0010
1000
0100
0010
0001
0010
0100
0010
0001
0100
1000
,
0011
0100
0010
0100
1000
0100
0001
0010
0100
0010
0001
1000
0100
0010
0100
0001
,
1100
0010
0001
1000
0010
1000
0010
0001
0010
0100
0010
1000
0100
0010
0001
0010
,
1100
0010
0001
0010
0100
1000
0100
0010
0100
1000
0100
0010
0001
0010
0100
0010
,
0022
0000
0000
0033
2200
0000
0000
3300
,
0220
0000
0000
0330
2020
0000
0000
3030
,
0202
0000
0000
0000
0000
0000
0000
0303
,
1000
0000
0000
0000
;
